1989 taylor's version deluxe. When Taylor Swift announced that 1989 (Taylor’s Version) was ...

1989 (Taylor’s Version) is the upcoming fourth re-recorded album by

Oct 27, 2023 · Shop Taylor Swift - 1989 (Taylor's Version) Rose Garden Pink Deluxe Poster Edition (Target Exclusive, CD) at Target. Choose from Same Day Delivery, Drive Up or Order Pickup. Free standard shipping with $35 orders. 3:00. Taylor Swift - 1989 (Taylor's Version) Aquamarine Green Edition / cd unboxing /. 2:55. Taylor Swift - 1989 (Taylor's Version) Crystal Skies Blue Edition / cd unboxing /. 2:51. Explore the tracklist, credits, statistics, and more for 1989 (Taylor's Version) by Taylor Swift. Compare versions and buy on Discogs. 1989 (Taylor’s Version) CD 21 Songs Including 5 previously unreleased songs from The Vault Collectible CD album in jewel case with unique front and back cover art 1 Disc album with unique collectible disc artwork A collectible lyric booklet with never-before-seen photos 10”x10” double-sided Foldable Poster Side 1 includes full size …Listen to 1989 (Taylor's Version) [Deluxe] by Taylor Swift on Apple Music. 2023. 22 Songs. Duration: 1 hour, 21 minutes.1989 (Taylor’s Version) Taylor Swift. 2023. 7.7. By Shaad D’Souza. Genre: Pop/R&B. Label: Republic. Reviewed: October 30, 2023. Taylor keeps her re-records …Shop Taylor Swift - 1989 (Taylor's Version) Aquamarine Green Deluxe Poster Edition (Target Exclusive, CD) at Target. Choose from Same Day Delivery, Drive Up or Order Pickup. Free standard shipping with $35 orders. Save 5% every day with RedCard.Sep 20, 2023 · Taylor Swift announced "1989 (Taylor's Version)" during her final Eras Tour show on the US leg. "The 1989 album changed my life in countless ways," she also wrote in a statement shared online. "To ... Reviews, rates, fees, and rewards details for The Ann Taylor Store Card. Compare to other cards and apply online in seconds Info about Ann Taylor Store Card has been collected by W...Artist : Taylor Swift Album : 1989 (Deluxe) Year : October 26, 2014 Genre: Pop Quality : Flac Hi-Res 24bits/44.1kHz Label: Released by Big Machine Records, LLC Source : Qobuz Size : 783mb Tracklist: 01 Welcome To New York 02 Blank Space 03 Style 04 Out Of The Woods 05 All You Had To Do Was Stay 06 Shake It Off 07 I Wish You Would 08 Bad …When Taylor Swift announced that 1989 (Taylor’s Version) was finally seeing release, she mentioned that, of all the albums she’s faithfully re-recorded in her quest to retake her master tapes, this one was special. “The 1989 album changed my life in countless ways,” she wrote on Instagram. “To be perfectly honest, this is my most ...Analyzed: Taylor Swift / 1989 (Taylor's Version) (Deluxe)-----DR Peak RMS Duration Track----- DR5 -0.01 dB -6.81 dB 3:33 01-Welcome To New York (Taylor's Version) DR7 -0.01 dB -8.25 dB 3:52 02-Blank Space (Taylor's Version) DR4 -0.01 dB -5.79 dB 3:51 03-Style (Taylor's Version) ...Taylor Swift announced that 1989 (Taylor's Version) will be her next re-recording during her Eras Tour. Here's everything to know about the album, including the release date and vault track titles.1989 is the album that fully, forever made Taylor Swift a pop artist, leaving the last crossover vestiges of her country career in the Nashville dirt as she embraced her new life in New York—retro synths and all.Remade nearly nine years later,—the fourth in Swift's extraordinary reclamation of her music after bitterly losing her masters in a …Oct 31, 2023 ... Taylor delves into a personal account about being under intense scrutiny from the media but taking the good with the bad when it comes to her ...Taylor Swift announced that 1989 (Taylor's Version) will be her next re-recording during her Eras Tour. Here's everything to know about the album, including the release date and vault track titles.Clockwork unveils new service to optimize network performance by synchronizing server clocks, virtually eliminating packet drops. Clockwork today announced a new service that uses ...1989 (Taylor's Version) [Webstore Deluxe] Critic Score. NR. User Score. 40. Based on 5 ratings. Liked by 1 person. Details. Submit Correction. November 9, 2023 / Release Date. Reissue / Format - / Label - / Genre. Christopher Rowe / Producer. Full Credits . Amazon. Sign In to rate and review. CRITIC REVIEWS.Get all the lyrics to songs on Taylor Swift - 1989 (Taylor’s Version) [Deluxe] (Traducción al Español) and join the Genius community of music scholars to learn the meaning behind the lyrics.Bad Blood (Remix) (Taylor’s Version) is the Bonus Song on the Album 1989 (Taylor’s Version) Deluxe, which is the re-recoded version of the hit album 1989. This Song Features Compton Rapper ...1989. Taylor Swift. Taylor Swift’s turn towards pop isn’t just an embrace of big beats and shiny surfaces, but a sense of lightness and play. It’s not that it lacks substance—hardly the case. But whereas 2008’s Fearless and 2010’s Speak Now take their dramas to Shakespearean heights, 1989 celebrates a newly liberated life of flings ...This inexpensive DIY sprinkler contraption will be the hit of the neighborhood and kids' summer parties. Easily made out of PVC pipes, the Deluxe Kid Wash lets kids run through coo...Presentation Of 1989 (Taylor's Version) By Taylor Swift Including 21 Tracks.The CD'S 1989 (Taylor's Version) Contains :• CD 1 : (1989 (Taylor's Version) (Cry...(RTTNews) - Deluxe (DLX) reported third quarter adjusted EPS of $0.99 compared to $1.10, prior year. Analysts polled by Thomson Reuters expected t... (RTTNews) - Deluxe (DLX) repor...Preview. Taylor Swift's '80s-inspired fifth studio effort is her first "official pop album," with heavyweights like Max Martin, Shellback, Ryan Tedder, and Jack Antonoff helping construct a sleeker, glitzier sound. "Shake It Off" mimics "Hey Ya," Outkast's own pledge of allegiance to populism, and echoes of Madonna, Cyndi Lauper, and Belinda ...1989 (Taylor's Version) (Deluxe) by Taylor Swift on Amazon Music Unlimited. Taylor Swift. 22 SONGS • 1 HOUR AND 21 MINUTES • OCT 27 2023. Play. …Oct 27, 2023 · Listen to 1989 (Taylor's Version) [Deluxe] by Taylor Swift on Apple Music. 2023. 22 Songs. Duration: 1 hour, 21 minutes. Style (Taylor's Version) Midnight You come and pick me up, no headlights Long drive Could end in burning flames or paradise Fade into view, oh It's been a while since I have even heard from you (heard from you) And I should just tell you to leave 'cause I Know exactly where it leads, but I Watch us go 'round and 'round each time You got that James Dean …1989 (Taylor's Version) [Webstore Deluxe] Critic Score. NR. User Score. 40. Based on 5 ratings. Liked by 1 person. Details. Submit Correction. November 9, 2023 / Release Date. Reissue / Format - / Label - / Genre. Christopher Rowe / Producer. Full Credits . Amazon. Sign In to rate and review. CRITIC REVIEWS.1989 (Taylor's Version) is the fourth re-recorded album by the American singer-songwriter Taylor Swift. It is a re-recording of Swift's fifth studio album, 1989, and was released on October 27, 2023, by Republic Records. The album is part of Swift's ongoing response to a 2019 dispute regarding the masters of her back catalog. It was announced at the final … Listen to 1989 (Deluxe Edition) on Spotify. Taylor Swift · Album · 2014 · 19 songs. 1989 (Taylor's Version) is the fourth re-recorded album by the American singer-songwriter Taylor Swift. It is a re-recording of Swift's fifth studio album, 1989, and was released on October 27, 2023, by Republic Records. The album is part of Swift's ongoing response to a 2019 dispute regarding the masters of her back catalog. It was announced at the final Los Angeles show of the Eras Tour on ... Oct 27, 2023 ... In this video, I take a look at all the Target Exclusive Variants of 1989 Taylor's Version! Which includes: -Tangerine Vinyl with Bonus ...Analyzed: Taylor Swift / 1989 (Taylor's Version) (Deluxe)-----DR Peak RMS Duration Track----- DR5 -0.01 dB -6.81 dB 3:33 01-Welcome To New York (Taylor's Version) DR7 -0.01 dB -8.25 dB 3:52 02-Blank Space (Taylor's Version) DR4 -0.01 dB -5.79 dB 3:51 03-Style (Taylor's Version) ...Listen to 1989 (Taylor's Version) (Deluxe), an album by Taylor Swift on TIDAL. TIDAL. About What is TIDAL? Explore the App ... 1989 (Taylor's Version) (Deluxe) Taylor Swift. 2023 Dolby Atmos. Play on TIDAL. Share. 1. Welcome To New York (Taylor's Version) ...Oct 27, 2023 · Music Reviews: 1989 (Taylor’s Version) [Deluxe] by Taylor Swift released in 2023. For Taylor Swift, 2014 might have felt like one long debutante ball.On her fifth album, 1989, she emerged as a pop superstar, platinum coursing through her veins, Victoria’s Secret models ...1989 (Taylor's Version) [Deluxe] - Album de Taylor Swift | Spotify. Escucha 1989 (Taylor's Version) [Deluxe] en Spotify. Taylor Swift · Álbum · 2,023 · 22 canciones.1989 (Taylor's Version) by Taylor Swift. Publication date 2023-10-27 Topics taylor, taylor swift, 1989, taylors version, 1989 taylors version, audio Language English. 1989 (Taylor's Version) Addeddate 2023-10-27 07:33:39 Identifier 1989-taylors-version Scanner Internet Archive HTML5 Uploader 1.7.0.1989 (Taylor's Version) [Deluxe] De Taylor Swift • 2023 - 22 canciones . Escuchar Aleatorio. Añadir a favoritos. Opciones. Ir al artista; Ir a la radio del artista ; Facebook X # Canción. Welcome To New York (Taylor's Version) Blank Space (Taylor's Version) Style (Taylor's Version)Listen free to Taylor Swift – 1989 (Taylor’s Version) (Deluxe) (Welcome to New York (Taylor's Version), Blank Space (Taylor's Version) and more). 22 tracks (81:08). Discover more music, concerts, videos, and pictures with the largest catalogue online at …Oct 27, 2023 ... Republic Records / © Taylor Swift ALL MY VIDEOS ARE FAN-MADE, ALL EDITS ARE EDITED BY ME AND NOT OFFICIAL UNLESS STATED OTHERWISE.1989 (Taylor's Version) [Deluxe] - Album by Taylor Swift - Apple Music. Taylor Swift. POP · 2023. When Taylor Swift announced that 1989 (Taylor’s Version) …When Taylor Swift announced that 1989 (Taylor’s Version) was finally seeing release, she mentioned that, of all the albums she’s faithfully re-recorded in her quest to retake her master tapes, this one was special. “The 1989 album changed my life in countless ways,” she wrote on Instagram. Listen to 1989 (Deluxe Edition) on Spotify. Taylor Swift · Album · 2014 · 15 songs. Taylor Swift - 1989 (Deluxe) Lyrics and Tracklist | Genius. 1989 (Deluxe) Taylor Swift. Released October 27, 2014. 1989 (Deluxe) Tracklist. Welcome to New York Lyrics. 316.2K. 2. Blank...Taylor Backman of Zoho talks about the benefits of small businesses using all-in-one software solutions. ? Recently, Small Biz in :15 On Location, traveled to Austin, Texas for Zoh...When Taylor Swift announced that 1989 (Taylor’s Version) was finally seeing release, she mentioned that, of all the albums she’s faithfully re-recorded in her quest to retake her master tapes, this one was special. “The 1989 album changed my life in countless ways,” she wrote on Instagram. “To be perfectly honest, this is my most ... Perilisan. 1989 (Taylor's Version) dijadwalkan untuk perilisan pada 27 Oktober 2023, menjadikannya album rekaman ulang keempat Swift. Album ini memuat 21 lagu, lima di antaranya merupakan lagu-lagu khusus "From the Vault", menandakan lagu-lagu yang belum pernah dirilis yang sebelumnya ditulis untuk 1989 tetapi tidak dimuat dalam daftar lagu ... 1989 (Taylor’s Version) is the fourth re-recording in her non-chronological release schedule. It was preceded by Speak Now (originally 2010, re-recorded in 2023), ...1989 (Taylor's Version) (Deluxe) 03:49 Composers: Jack Antonoff - Taylor Swift. 22. Bad Blood (Taylor's Version) Taylor Swift. 1989 (Taylor's Version) (Deluxe) 03:19 Composers: Taylor Swift - Kendrick Lamar - Max Martin - Shellback. Comments Publish 250 remaining characters SHARE ON ...Presentation Of 1989 (Taylor's Version) By Taylor Swift Including 21 Tracks.The CD'S 1989 (Taylor's Version) Contains :• CD 1 : (1989 (Taylor's Version) (Cry...Roxio Easy Media Creator 9.0 DE (Deluxe Suite) is an older version of the Roxio Creator suite. This set of applications allows users to create and burn CDs and DVDs, edit existing ...This is a legit, original, officially licensed Taylor Swift merch purchased directly from the artist's record label, online store, or licensed distributor.Collection 1989 (Taylor's Version) is empty. Back to homepage. Shop the Official Taylor Swift Online store for exclusive Taylor Swift products including shirts, hoodies, music, accessories, phone cases, tour merchandise and old Taylor merch!1989 (Taylor's Version) (Deluxe) 03:49 Composers: Jack Antonoff - Taylor Swift. 22. Bad Blood (Taylor's Version) Taylor Swift. 1989 (Taylor's Version) (Deluxe) 03:19 Composers: Taylor Swift - Kendrick Lamar - Max Martin - Shellback. Comments Publish 250 remaining characters SHARE ON ...Genre: Pop. Member Since: Nov 11, 2021. Stream 1989 (Taylor's Version) (Deluxe), an album by Taylor Swift. Release Date: October 26, 2023.In addition to the 16 songs on the original deluxe album, "1989 (Taylor's Version)" will include five more that have not yet been heard, as revealed by the CD presale on her website.1989 (Taylor's Version) [Deluxe] Taylor Swift. POP · 2023 Preview. When Taylor Swift announced that 1989 (Taylor’s Version) was finally seeing release, she mentioned that, of all the albums she’s faithfully re-recorded in her quest to retake her master tapes, this one was special. “The 1989 album ...Overview. User Reviews. Discography. Taylor Swift. 1989 (Taylor’s Version) [Deluxe] Critic Score. NR. User Score. 75. Based on 61 ratings. Liked by 13 …When Taylor Swift announced that 1989 (Taylor’s Version) was finally seeing release, she mentioned that, of all the albums she’s faithfully re-recorded in her quest to retake her master tapes, this one was special. “The 1989 album changed my life in countless ways,” she wrote on Instagram.Oct 27, 2023 · Listen to 1989 (Taylor's Version) [Deluxe] by Taylor Swift on Apple Music. 2023. 22 Songs. Duration: 1 hour, 21 minutes. When Taylor Swift announced that 1989 (Taylor’s Version) was finally seeing release, she mentioned that, of all the albums she’s faithfully re-recorded in her quest to retake her master tapes, this one was special. “The 1989 album changed my life in countless ways,” she wrote on Instagram.Download or stream 1989 (TAYLOR'S VERSION) [DELUXE] by Taylor Swift, Kendrick Lamar for free on hoopla. | hoopladigital.comComposers: Taylor Swift - Kendrick Lamar - Max Martin - Shellback. Listen to 1989 (Taylor's Version) (Deluxe) by Taylor Swift on Deezer. Welcome To New York …Nov 5, 2023 ... Taylor Swift 1989 Taylor's Version (Japan) Deluxe Limited Edition Unboxing Hi everyone!how are you doing?even though is november is still ...The deluxe version includes O-card, 20-page booklet and 13 photo prints (there are 5 different sets of 13 photographs which will be randomly packed). Including three additional songs and three songwriting voice memos. ... 5.0 out of 5 stars Reliving my childhood in preparation for 1989 (Taylor’s version) Reviewed in the United States on ...Oct 31, 2023 ... all rights reserved to the artist(s) and label(s). no copyright intended.] - #TaylorSwift #1989taylorsversion.Right now, the average price for a “1989: Taylor’s Version” Deluxe CD is around $50, with lots of all four colors reselling for upwards of $300. These retailed for $15. As always, a big thanks to Taylor Swift. You didn’t have to produce a limited edition re-release of your 2013 album.Arrives by Fri, Mar 15 Buy Taylor Swift - 1989 (Taylor's Version) Crystal Skies Blue Edition Deluxe CD with Exclusive Photos From the Vault. at Walmart.com.Style (Taylor's Version) Midnight You come and pick me up, no headlights Long drive Could end in burning flames or paradise Fade into view, oh It's been a while since I have even heard from you (heard from you) And I should just tell you to leave 'cause I Know exactly where it leads, but I Watch us go 'round and 'round each time You got that James Dean … Listen to 1989 (Deluxe Edition) on Spotify. Taylor Swift · Album · 2014 · 19 songs. Listen to 1989 (Deluxe Edition) on Spotify. Taylor Swift · Album · 2014 · 19 songs. 1989 (Taylor's Version) 1989 (Taylor's Version) là album tái thu âm thứ tư của nữ ca sĩ kiêm nhạc sĩ người Mỹ Taylor Swift, do Republic Records phát hành vào ngày 27 tháng 10 năm 2023. Được tái thu âm từ album phòng thu thứ năm 1989 (2014) của cô và là album tái thu âm tiếp theo sau bản tái thu ... Analyzed: Taylor Swift / 1989 (Taylor's Version) (Deluxe)-----DR Peak RMS Duration Track----- DR5 -0.01 dB -6.81 dB 3:33 01-Welcome To New York (Taylor's Version) DR7 -0.01 dB -8.25 dB 3:52 02-Blank Space (Taylor's Version) DR4 -0.01 dB -5.79 dB 3:51 03-Style (Taylor's Version) ...Listen to 1989 (Taylor's Version) [Deluxe] by Taylor Swift on Apple Music. 2023. 22 Songs. Duration: 1 hour, 21 minutes.Oct 27, 2023 · Preview. When Taylor Swift announced that 1989 (Taylor’s Version) was finally seeing release, she mentioned that, of all the albums she’s faithfully rerecorded in her quest to retake her master tapes, this one was special. “The 1989 album changed my life in countless ways,” she wrote on Instagram. “To be perfectly honest, this is my ... 1989 (Taylor’s Version) [Deluxe] Taylor Swift. Released October 27, 2023. 1989 (Taylor’s Version) [Deluxe] Tracklist. Welcome To New York (Taylor's Version) …1989 (Taylor's Version) là album tái thu âm thứ tư của nữ ca sĩ kiêm nhạc sĩ người Mỹ Taylor Swift, do Republic Records phát hành vào ngày 27 tháng 10 năm 2023. Được tái thu âm từ album phòng thu thứ năm 1989 (2014) của cô và là album tái thu âm tiếp theo sau bản tái thu âm cùng năm là Speak Now (Taylor's Version).1989 (Taylor's Version) (Deluxe) 03:49 Compositeurs : Jack Antonoff - Taylor Swift. 22. Bad Blood (Taylor's Version) Taylor Swift. 1989 (Taylor's Version) (Deluxe) 03:19 Compositeurs : Taylor Swift - Kendrick Lamar - Max Martin - Shellback. Commentaires Publier 250 caractères restants PARTAGER SUR ...All the lyrics and translations to the album 1989 (Taylor's Version) [Deluxe] by Taylor Swift. Type song title, artist or lyrics. Musixmatch PRO Top lyrics Community Academy Podcasts. Sign in. ... 1989 (Taylor's Version) 2023. Cruel Summer (Live from TS The Eras Tour) - … 1989 (Taylor's Version) is the fourth re-recorded album by the American singer-songwriter Taylor Swift. It is a re-recording of Swift's fifth studio album, 1989, and was released on October 27, 2023, by Republic Records. The album is part of Swift's ongoing response to a 2019 dispute regarding the masters of her back catalog. It was announced at the final Los Angeles show of the Eras Tour on ... . Collection 1989 (Taylor's Version) is empty. Back 1989 (Taylor's Version) (Deluxe) 03:49 C Oct 27, 2023 ... PACKAGE DETAILS: 1989 (Taylor's Version) CD; 21 Songs; Including 5 previously unreleased songs from The Vault; Collectible CD album in jewel ...1989 (Taylor's Version) (Deluxe) by Taylor Swift on Amazon Music Unlimited. Taylor Swift. 22 SONGS • 1 HOUR AND 21 MINUTES • OCT 27 2023. Play. … At just 60,000 points for a free night, award redemptions do Play on TIDAL. 1. Welcome To New York (Taylor's Version) Taylor Swift. 2. Blank Space (Taylor's Version) Taylor Swift. 3. Style (Taylor's Version) Taylor Swift. 4. Out Of The …But just as she played with the traditions and conventions of country music on her early albums, Swift uses the nostalgia of 1989 not to look back, but to move ahead. 1. Welcome To New York (Taylor's Version) 3:32. 2. Blank Space (Taylor's Version) 3:51. 3. 1989 (Taylor's Version) Deluxe CD - Taylor Swift...

Continue Reading